<?xml version="1.0" standalone="no"?>
<!DOCTYPE svg PUBLIC "-//W3C//DTD SVG 1.1//EN" "http://www.w3.org/Graphics/SVG/1.1/DTD/svg11.dtd" >
<svg xmlns="http://www.w3.org/2000/svg">
<metadata></metadata>
<defs>
<font id="walkway_boldregular" horiz-adv-x="525" >
<font-face units-per-em="1000" ascent="800" descent="-200" />
<missing-glyph horiz-adv-x="354" />
<glyph horiz-adv-x="1000" />
<glyph horiz-adv-x="1000" />
<glyph unicode="&#xd;" horiz-adv-x="354" />
<glyph unicode=" "  horiz-adv-x="354" />
<glyph unicode="&#x09;" horiz-adv-x="354" />
<glyph unicode="&#xa0;" horiz-adv-x="354" />
<glyph unicode="!" horiz-adv-x="194" d="M72 166v512h51v-512h-51zM97 0q-26 0 -26 25v62q0 24 26 24q25 0 25 -24v-62q0 -25 -25 -25z" />
<glyph unicode="&#x22;" horiz-adv-x="292" d="M203 547q-26 0 -26 22v82q0 21 26 21q25 0 25 -21v-82q0 -22 -25 -22zM87 547q-25 0 -25 22v82q0 21 25 21q26 0 26 -21v-82q0 -22 -26 -22z" />
<glyph unicode="#" horiz-adv-x="531" d="M461 350h-90l-18 -71h89l-11 -45h-89l-19 -73h-52l19 73h-89l-19 -73h-52l19 73h-89l11 45h89l19 71h-91l14 45h88l19 73h52l-19 -73h89l18 73h52l-18 -73h89zM231 350l-19 -71h89l18 71h-88z" />
<glyph unicode="$" horiz-adv-x="642" d="M415 -10v-60h-51v53q-17 -1 -34 -1q-32 0 -62 4v-56h-51v63q-196 46 -196 226v24h51v-21q0 -143 145 -180v303q-174 43 -174 168q0 142 174 176v64h51v-58q20 1 43 1q28 0 53 -2v59h51v-66q177 -40 179 -219h-50q-9 138 -129 170v-284q94 -23 134 -52q59 -43 59 -131 q0 -74 -61 -124q-53 -43 -132 -57zM364 646q-25 3 -53 3q-23 0 -43 -2v-263l96 -18v280zM217 639q-123 -29 -123 -126q0 -84 123 -117v243zM536 247q-30 31 -121 57v-266q61 13 99 45q43 36 43 91q0 51 -21 73zM364 315l-96 19v-301q29 -3 63 -3q17 0 33 1v284z" />
<glyph unicode="%" horiz-adv-x="750" d="M166 -1h-62l498 679h61zM560 -19q-149 0 -149 180q0 185 150 185q148 0 148 -185q0 -180 -149 -180zM190 294q-148 0 -148 180q0 184 149 184t149 -184q0 -180 -150 -180zM560 299q-97 0 -97 -138q0 -133 98 -133q96 0 96 133q0 138 -97 138zM190 611q-96 0 -96 -137 q0 -133 97 -133t97 133q0 137 -98 137z" />
<glyph unicode="&#x26;" horiz-adv-x="603" d="M486 99q-85 -115 -219 -115q-89 0 -156 41q-80 48 -80 132q0 76 69 139q45 40 136 86q-115 61 -115 162q0 64 54 101q47 33 114 33q71 0 117 -32q52 -36 52 -104q0 -96 -191 -197q-95 -50 -127 -78q-58 -52 -58 -110t58 -94q53 -32 121 -32q130 0 191 108q34 61 34 141 h51v-299h-51v118zM370 610q-32 21 -79 21q-48 0 -82 -22q-37 -24 -37 -66q0 -86 114 -135q121 67 121 135q0 42 -37 67z" />
<glyph unicode="'" horiz-adv-x="175" d="M87 547q-25 0 -25 22v82q0 21 25 21q26 0 26 -21v-82q0 -22 -26 -22z" />
<glyph unicode="(" horiz-adv-x="233" d="M186 -168q-130 199 -130 451q0 253 130 451h57q-136 -203 -136 -451t136 -451h-57z" />
<glyph unicode=")" horiz-adv-x="233" d="M42 -168h-57q140 203 140 451t-140 451h57q134 -195 134 -451q0 -255 -134 -451z" />
<glyph unicode="*" horiz-adv-x="340" d="M69 624h2l64 -30v55q0 23 26 23q25 0 25 -23v-55l62 28q7 3 13 3q13 0 22 -9q3 -7 3 -13q0 -14 -14 -20l-57 -25l57 -27q15 -7 15 -20q0 -22 -25 -22q-8 0 -15 3l-61 29v-55q0 -23 -25 -23q-26 0 -26 23v55l-61 -29q-7 -3 -14 -3q-25 0 -25 22q0 13 15 20l57 27l-58 26 q-15 6 -15 19q0 6 6.5 14t18.5 8q5 0 10 -1z" />
<glyph unicode="+" horiz-adv-x="560" d="M305 228v-161h-51v161h-191v46h191v159h51v-159h192v-46h-192z" />
<glyph unicode="," horiz-adv-x="262" d="M135 -74q-5 -17 -25 -17q-26 0 -26 21q0 3 2 8l43 132q6 21 30 16q20 -5 20 -21q0 -3 -2 -7z" />
<glyph unicode="-" horiz-adv-x="350" d="M36 254v20h287v-20h-287z" />
<glyph unicode="." horiz-adv-x="209" d="M105 -2q-26 0 -26 20v47q0 20 26 20q25 0 25 -20v-47q0 -20 -25 -20z" />
<glyph unicode="/" horiz-adv-x="350" d="M32 0h-54l349 694h54z" />
<glyph unicode="0" horiz-adv-x="584" d="M293 -12q-120 0 -191 73q-69 70 -69 186v164q0 118 71 189t189 71q121 0 189 -72t68 -188v-164q0 -116 -68 -187.5t-189 -71.5zM499 411q0 95 -54 153q-57 60 -153 60t-152 -58t-56 -155v-164q0 -96 56.5 -154t151.5 -58q98 0 153 60q54 57 54 152v164z" />
<glyph unicode="1" horiz-adv-x="413" d="M274 0v573l-134 -106h-78l222 179h41v-646h-51z" />
<glyph unicode="2" horiz-adv-x="584" d="M43 0q1 188 205 308l140 80q85 49 85 104q0 62 -54 93q-44 25 -116 25q-101 0 -149 -47t-48 -148h-51q0 124 64 183t178 59q95 0 154 -35q72 -43 72 -132q0 -86 -165 -176q-82 -46 -120 -70q-131 -97 -140 -197h456v-47h-511z" />
<glyph unicode="3" horiz-adv-x="584" d="M297 -11q-118 0 -190 53q-81 59 -81 171v24h51v-37q0 -82 67 -125q58 -39 149 -39q85 0 143 33q70 40 70 113q0 141 -194 141h-61v47h62q179 0 179 122q0 62 -62 93q-50 25 -124 25q-108 0 -158.5 -44.5t-50.5 -139.5h-51q0 125 75 181q66 50 182 50q97 0 159 -33 q81 -42 81 -132q0 -107 -104 -144q117 -41 117 -166q0 -97 -85 -149q-71 -44 -174 -44z" />
<glyph unicode="4" horiz-adv-x="584" d="M434 215v-215h-51v215h-374l223 432h54l-199 -385h296v386l51 -3v-383h129v-47h-129z" />
<glyph unicode="5" horiz-adv-x="584" d="M288 -11q-119 0 -187 52q-77 58 -77 185h51q0 -103 60 -148q56 -42 154 -42q94 0 151.5 47t57.5 135q0 87 -63 136q-59 46 -154 46q-124 0 -186 -95h-50l16 341h458v-47h-408l-9 -216q68 64 183 64q114 0 186 -58q78 -62 78 -170q0 -111 -77 -173q-71 -57 -184 -57z" />
<glyph unicode="6" horiz-adv-x="584" d="M487 426q0 92 -54.5 137.5t-138.5 45.5q-86 0 -139 -44t-54 -124l-1 -96q65 72 191 72q105 0 171 -54q71 -58 71 -159q0 -100 -72 -157q-67 -53 -172 -53t-171 53q-71 57 -71 157v11q1 3 1 8v220q0 101 74 158q68 52 173 52q104 0 171 -54q71 -58 71 -173h-50zM290 373 q-86 0 -138 -43q-55 -46 -55 -126q0 -79 54 -123t139 -44t139 44t54 123q0 80 -53.5 124.5t-139.5 44.5z" />
<glyph unicode="7" horiz-adv-x="584" d="M221 0h-54l306 599h-422v47h500z" />
<glyph unicode="8" horiz-adv-x="601" d="M485 29q-71 -40 -184 -40q-114 0 -185 42q-89 51 -89 157q0 128 135 168q-100 41 -100 129q0 93 77 137q62 35 162 35q99 0 161 -35q78 -45 78 -137q0 -88 -102 -129q136 -41 136 -170q0 -106 -89 -157zM301 610q-188 0 -188 -126q0 -55 67 -84q54 -24 122 -24 q70 0 123 25q64 30 64 85q0 124 -188 124zM302 329q-224 0 -224 -142q0 -81 71 -120q58 -31 152 -31t151 31q71 39 71 120q0 142 -221 142z" />
<glyph unicode="9" horiz-adv-x="584" d="M536 433v-239q0 -100 -74 -157q-68 -52 -173 -52t-171 53q-71 58 -71 172h50q0 -93 54 -137.5t139 -44.5t137 44q56 45 56 124l1 115q-65 -71 -191 -71q-105 0 -171 53q-71 57 -71 157t72 158q67 54 172 54t171 -54q71 -58 71 -158v-11q-1 -4 -1 -6zM294 619 q-86 0 -138 -43q-55 -46 -55 -126q0 -79 54 -123t139 -44t139 44t54 123q0 80 -53.5 124.5t-139.5 44.5z" />
<glyph unicode=":" horiz-adv-x="244" d="M123 355q-26 0 -26 24v61q0 25 26 25q23 0 25 -24v-62q0 -24 -25 -24zM123 -2q-26 0 -26 25v61q0 24 26 24q23 0 25 -24v-61q0 -25 -25 -25z" />
<glyph unicode=";" horiz-adv-x="251" d="M143 354q-26 0 -26 25v61q0 25 26 25q25 0 25 -25v-61q0 -25 -25 -25zM129 -72q-5 -19 -24 -19q-27 0 -27 23q0 3 2 9l43 147q6 23 30 17q20 -5 20 -22q0 -4 -2 -8z" />
<glyph unicode="&#x3c;" horiz-adv-x="535" d="M33 220v41l460 177v-49l-386 -149l386 -149v-49z" />
<glyph unicode="=" horiz-adv-x="630" d="M35 271v42h560v-42h-560zM35 167v42h560v-42h-560z" />
<glyph unicode="&#x3e;" horiz-adv-x="535" d="M33 42v49l386 149l-386 149v49l460 -177v-41z" />
<glyph unicode="?" d="M281 203v-37h-52v32q0 99 103 182q59 47 79 74q23 32 23 74q0 61 -54 93q-45 26 -116 26q-89 0 -135.5 -41t-57.5 -133l-47 26q14 102 81 150q63 45 160 45q87 0 148 -38q72 -45 72 -128q0 -88 -102 -169t-102 -156zM254 0q-25 0 -25 25v62q0 24 25 24q26 0 26 -24v-62 q0 -25 -26 -25z" />
<glyph unicode="@" horiz-adv-x="840" d="M550 203q-69 -78 -183 -79q-103 -1 -154 70q-35 47 -35 113q0 111 65 183q68 76 184 77q117 2 162 -75l11 75h48l-51 -372q1 -3 0 -7h4q20 0 49 22q26 20 40 41q52 79 52 149q0 113 -92 183q-87 66 -210 66q-144 0 -240 -82q-102 -86 -102 -227q0 -139 103 -224 q97 -81 238 -81q83 0 165 36q88 39 130 109h59q-54 -98 -159 -146q-95 -45 -190 -45q-164 0 -278 94q-122 101 -122 262q0 158 119 257q112 93 273 93q144 0 246 -75q112 -83 112 -222q0 -98 -66 -183q-23 -29 -58 -52q-41 -25 -76 -25q-52 0 -44 65zM421 523 q-89 -1 -144 -65q-52 -60 -52 -149q0 -66 37.5 -104t106.5 -37q78 0 134 52t67 129q2 12 2 34q0 69 -39.5 105t-111.5 35z" />
<glyph unicode="A" horiz-adv-x="636" d="M598 0l-97 213h-362l-99 -213h-58l318 678h47l307 -678h-56zM324 604l-163 -343h319z" />
<glyph unicode="B" horiz-adv-x="642" d="M359 0h-325v678h338q95 0 156 -41q70 -47 70 -137q0 -97 -110 -144q132 -38 132 -167q0 -100 -85 -149q-69 -40 -176 -40zM370 631h-285v-255h284q74 0 122 29q56 34 56 100t-58 99q-47 27 -119 27zM367 329h-282v-282h286q83 0 136 32q63 37 63 109q0 77 -67 113 q-52 28 -136 28z" />
<glyph unicode="C" horiz-adv-x="719" d="M646 528q-76 110 -244 110q-144 0 -229.5 -81t-85.5 -219q0 -136 81.5 -217t222.5 -81q161 0 246 112l44 -28q-101 -131 -289 -131q-164 0 -260 92t-96 249q0 161 99 256t267 95q195 0 287 -130z" />
<glyph unicode="D" horiz-adv-x="680" d="M277 0h-235v678h273q167 0 254 -91q83 -88 83 -249q0 -166 -106 -255q-99 -83 -269 -83zM532 553q-73 78 -218 78h-221v-584h187q152 0 236.5 74t84.5 217q0 142 -69 215z" />
<glyph unicode="E" horiz-adv-x="564" d="M42 0v678h516v-47h-466v-255h413v-46h-413v-283h471v-47h-521z" />
<glyph unicode="F" horiz-adv-x="505" d="M92 631v-255h368v-46h-368v-330h-50v678h480v-47h-430z" />
<glyph unicode="G" horiz-adv-x="758" d="M612 56q-92 -63 -221 -63q-170 0 -269 88q-103 91 -103 256q0 161 98.5 254.5t266.5 93.5q125 0 208 -50q94 -57 122 -189h-52q-44 192 -277 192q-146 0 -230.5 -80t-84.5 -220q0 -143 85.5 -220.5t235.5 -77.5q115 0 195 59q86 63 86 167v18h-291v47h340q3 -33 3 -53 q0 -145 -112 -222z" />
<glyph unicode="H" horiz-adv-x="680" d="M587 0v330h-494v-330h-51v678h51v-302h494v302h51v-678h-51z" />
<glyph unicode="I" horiz-adv-x="134" d="M42 0v678h51v-678h-51z" />
<glyph unicode="J" horiz-adv-x="486" d="M223 -7q-202 0 -220 175h52q11 -128 164 -128q93 0 131 36.5t38 125.5v476h51v-482q0 -203 -216 -203z" />
<glyph unicode="K" horiz-adv-x="670" d="M616 0l-378 357l-145 -110v-247h-51v678h51v-371l499 371h81l-394 -292l408 -386h-71z" />
<glyph unicode="L" horiz-adv-x="505" d="M42 0v678h51v-631h428v-47h-479z" />
<glyph unicode="M" horiz-adv-x="819" d="M725 0v582l-295 -582h-41l-296 582v-582h-51v678h58l309 -609l310 609h57v-678h-51z" />
<glyph unicode="N" horiz-adv-x="680" d="M585 0l-492 602v-602h-51v678h53q86 -109 246 -301q173 -206 246 -298v599h51v-678h-53z" />
<glyph unicode="O" horiz-adv-x="757" d="M379 -7q-168 0 -263.5 92t-95.5 254q0 160 96 248t263 88t263.5 -88t96.5 -248t-96.5 -253t-263.5 -93zM379 628q-145 0 -226.5 -75.5t-81.5 -213.5t82 -218.5t226 -80.5q146 0 227.5 79.5t81.5 219.5q0 138 -81.5 213.5t-227.5 75.5z" />
<glyph unicode="P" horiz-adv-x="621" d="M346 296h-253v-296h-51v678h315q247 0 247 -194q0 -98 -84 -147q-69 -41 -174 -41zM363 631h-270v-288h271q77 0 129 34q59 38 59 107q0 147 -189 147z" />
<glyph unicode="Q" horiz-adv-x="757" d="M500 7q31 -26 79 -26h107v-47h-107q-85 0 -135 61q-31 -4 -65 -4q-168 0 -263.5 92.5t-95.5 254.5q0 160 96 248.5t263 88.5t263.5 -88.5t96.5 -248.5q0 -124 -60 -210q-63 -89 -179 -121zM379 628q-145 0 -226.5 -76t-81.5 -214q0 -129 73 -208q18 44 60.5 69.5 t93.5 25.5q67 0 116 -41t49 -106q0 -15 6 -30q107 25 165 104q54 75 54 186q0 138 -81.5 214t-227.5 76zM414 79q0 45 -33.5 72.5t-82.5 27.5q-42 0 -75.5 -23t-38.5 -61q79 -57 195 -57q22 0 42 2q-7 19 -7 39z" />
<glyph unicode="R" horiz-adv-x="642" d="M492 331q105 -41 105 -159v-172h-51v170q0 133 -186 133h-267v-303h-51v678h327q238 0 238 -178q0 -124 -115 -169zM371 631h-278v-279h262q86 0 138 32q63 38 63 113q0 134 -185 134z" />
<glyph unicode="S" horiz-adv-x="642" d="M330 -7q-131 0 -210 47q-99 57 -99 179v24h51v-20q0 -183 259 -183q89 0 149 27q77 35 77 108q0 51 -28 78q-23 22 -79 39q-30 8 -142 32q-129 27 -174 50q-91 46 -91 137q0 174 268 174q280 0 283 -218h-50q-6 105 -72 141q-54 30 -161 30q-217 0 -217 -127 q0 -62 59 -93q41 -21 139 -39q182 -32 243 -69q73 -44 73 -138t-97 -142q-75 -37 -181 -37z" />
<glyph unicode="T" horiz-adv-x="545" d="M298 631v-631h-51v631h-259v47h569v-47h-259z" />
<glyph unicode="U" horiz-adv-x="664" d="M546 53q-71 -60 -214 -60q-145 0 -215 61q-75 64 -75 202v422h51v-422q0 -216 239 -216q238 0 238 213v425h51v-424q0 -137 -75 -201z" />
<glyph unicode="V" horiz-adv-x="628" d="M340 0h-43l-307 678h54l275 -606l266 606h54z" />
<glyph unicode="W" horiz-adv-x="970" d="M689 0h-43l-159 364l-155 -364h-43l-296 678h54l264 -604l148 353l-109 251h54l264 -605l255 605h53z" />
<glyph unicode="X" horiz-adv-x="604" d="M570 0l-266 311l-269 -311h-65l300 349l-285 329h67l252 -292l254 292h66l-285 -330l296 -348h-65z" />
<glyph unicode="Y" horiz-adv-x="626" d="M339 328v-328h-51v328l-321 350h66l280 -304l281 304h65z" />
<glyph unicode="Z" horiz-adv-x="626" d="M22 0v45l507 586h-478v47h546v-44l-507 -587h515v-47h-583z" />
<glyph unicode="[" horiz-adv-x="233" d="M86 -168v902h148v-48h-97v-806h97v-48h-148z" />
<glyph unicode="\" horiz-adv-x="350" d="M320 0l-352 694h54l352 -694h-54z" />
<glyph unicode="]" horiz-adv-x="233" d="M146 -168h-147v48h96l1 32l-1 774h-96v48h148z" />
<glyph unicode="^" horiz-adv-x="298" d="M203 511l-56 82l-56 -82h-56l92 135h38l98 -135h-60z" />
<glyph unicode="_" d="M-15 -119v48h555v-48h-555z" />
<glyph unicode="`" horiz-adv-x="193" d="M170 533q-16 -9 -35 3l-86 72q-36 31 -36 45q0 8 11 14q18 13 36 -3l113 -100q7 -6 7 -14q0 -10 -10 -17z" />
<glyph unicode="a" horiz-adv-x="564" d="M463 -1v88q-67 -98 -203 -98q-116 0 -183 74q-63 70 -63 180q0 113 64 183q67 74 186 74q134 0 199 -95v93h51v-499h-51zM412 395q-54 58 -153 58q-92 0 -146 -62q-49 -58 -49 -148q0 -91 49 -147q52 -60 146 -60q93 0 148.5 59t55.5 148q0 96 -51 152z" />
<glyph unicode="b" horiz-adv-x="564" d="M478 63q-67 -73 -186 -73q-129 0 -198 98v-88h-51v678h51v-265q65 95 199 95q120 0 186 -76q62 -70 62 -186q0 -115 -63 -183zM443 399q-51 61 -146 61q-102 0 -154 -60q-49 -56 -49 -156q0 -92 56 -149.5t148 -57.5q93 0 145 61q48 57 48 149q0 95 -48 152z" />
<glyph unicode="c" d="M418 26q-60 -37 -144 -37q-118 0 -187 67.5t-69 179.5q0 118 70.5 191t196.5 73q76 0 132 -34q62 -38 84 -118l-47 -23q-34 128 -171 128q-102 0 -158 -60t-56 -157q0 -92 54 -146t150 -54q68 0 117 30q53 33 68 110l48 -21q-21 -87 -88 -129z" />
<glyph unicode="d" horiz-adv-x="564" d="M463 0v88q-67 -99 -203 -99q-116 0 -183 75q-63 71 -63 183q0 114 64 185q67 75 186 75q134 0 199 -95v266h51v-678h-51zM412 401q-54 59 -153 59q-92 0 -145 -63q-50 -59 -50 -150q0 -92 49 -149q52 -62 146 -62q93 0 149 62q55 59 55 149q0 98 -51 154z" />
<glyph unicode="e" d="M61 226q10 -190 201 -190q145 0 191 119h52q-29 -94 -99 -132q-61 -34 -146 -34q-123 0 -188 71q-61 66 -61 183q0 115 69.5 186t184.5 71t184 -64.5t69 -173.5v-35zM265 453q-85 0 -139.5 -48t-63.5 -132h400q-5 84 -58.5 132t-138.5 48z" />
<glyph unicode="f" horiz-adv-x="267" d="M138 477v-32h111v-48h-111v-398h-51v398h-72v48h72v32q0 189 254 189v-46q-203 0 -203 -143z" />
<glyph unicode="g" horiz-adv-x="545" d="M266 -179q-90 0 -147 35q-70 42 -75 141h51q11 -129 172 -129q186 0 186 156v64q-68 -88 -196 -88q-112 0 -177 69t-65 179q0 112 66.5 182t182.5 70q126 0 189 -90v79h51v-466q0 -202 -238 -202zM262 453q-90 0 -144 -60q-52 -56 -52 -144q0 -89 48 -143q51 -59 141 -59 q92 0 145 55t53 144q0 88 -52 147.5t-139 59.5z" />
<glyph unicode="h" d="M429 0v324q0 66 -41.5 101t-112.5 35q-84 0 -132.5 -50.5t-48.5 -131.5v-278h-51v678h51v-249q58 79 180 79q89 0 145 -43q61 -47 61 -132v-333h-51z" />
<glyph unicode="i" horiz-adv-x="136" d="M67 577q-16 0 -24 20v70q9 20 24 20q12 0 27 -18v-74q-14 -18 -27 -18zM43 0v496h51v-496h-51z" />
<glyph unicode="j" horiz-adv-x="136" d="M67 577q-16 0 -24 19v71q9 20 24 20q12 0 27 -18v-75q-14 -17 -27 -17zM-163 -179v47q203 0 203 158v469h51v-470q0 -204 -254 -204z" />
<glyph unicode="k" horiz-adv-x="532" d="M464 0l-258 272l-112 -79v-193h-51v678h51v-426l343 245l90 -2l-280 -194l286 -301h-69z" />
<glyph unicode="l" horiz-adv-x="136" d="M43 0v678h51v-678h-51z" />
<glyph unicode="m" horiz-adv-x="817" d="M722 0v319q0 134 -130 134q-72 0 -115 -40t-43 -107v-306h-51v319q0 134 -133 134q-75 0 -118 -55q-38 -50 -38 -124v-274h-51v489h51v-64q56 75 166 75q113 0 157 -86q50 86 173 86q183 0 183 -172v-328h-51z" />
<glyph unicode="n" d="M429 0v319q0 65 -42 101q-41 33 -112 33q-84 0 -132.5 -49.5t-48.5 -129.5v-274h-51v489h51v-67q58 78 180 78q89 0 145 -42q61 -46 61 -130v-328h-51z" />
<glyph unicode="o" horiz-adv-x="545" d="M272 -11q-119 0 -188.5 71t-69.5 184q0 117 71.5 186.5t188.5 69.5t187.5 -69.5t70.5 -186.5t-71.5 -186t-188.5 -69zM273 453q-96 0 -152 -56.5t-56 -152.5q0 -95 56.5 -151.5t151.5 -56.5t151.5 56.5t56.5 151.5q0 94 -55 151.5t-153 57.5z" />
<glyph unicode="p" horiz-adv-x="564" d="M293 -18q-133 0 -199 96v-246h-51v657h51v-85q66 96 198 96q119 0 186 -73q63 -70 63 -184q0 -119 -65 -190t-183 -71zM442 391q-52 62 -144 62q-93 0 -148.5 -57.5t-55.5 -151.5q0 -100 49 -155q52 -60 154 -60q94 0 146 62q48 58 48 151q0 91 -49 149z" />
<glyph unicode="q" horiz-adv-x="564" d="M462 -168v242q-62 -92 -204 -92q-112 0 -180 77q-64 72 -64 184q0 110 66.5 183.5t181.5 73.5q135 0 200 -96v85h51v-657h-51zM257 453q-92 0 -144 -63q-48 -57 -48 -148t49 -149q52 -64 144 -64q101 0 154 59q51 55 51 154q0 93 -55 152t-151 59z" />
<glyph unicode="r" horiz-adv-x="318" d="M138 373q-44 -69 -44 -177v-196h-51v489h51v-83q15 22 38 41q66 53 175 53v-47q-117 0 -169 -80z" />
<glyph unicode="s" horiz-adv-x="486" d="M249 -13q-223 0 -223 200h53q0 -79 41 -115t130 -36q60 0 99 19q48 25 48 74q0 60 -100 83q-7 2 -100 16q-150 23 -150 130q0 70 60 109q51 34 125 34q215 0 215 -178h-54q0 68 -37 98.5t-119 30.5q-55 0 -93 -22q-44 -26 -44 -72q0 -60 98 -77q26 -5 106 -19 q146 -25 146 -133q0 -76 -66 -113q-53 -29 -135 -29z" />
<glyph unicode="t" horiz-adv-x="263" d="M156 420v-420h-49l-2 420h-99v47h99v147h51v-147h101v-47h-101z" />
<glyph unicode="u" d="M429 -1v68q-59 -78 -179 -78q-94 0 -149 45q-58 49 -58 137v317h51v-316q0 -136 156 -136q90 0 136 52q43 49 43 136v264h51v-489h-51z" />
<glyph unicode="v" horiz-adv-x="471" d="M268 0h-46l-236 488h59l199 -423l186 423h56z" />
<glyph unicode="w" horiz-adv-x="771" d="M560 0h-47l-123 267l-114 -267h-46l-225 488h58l189 -421l110 263l-74 158h59l188 -421l176 421h55z" />
<glyph unicode="x" horiz-adv-x="467" d="M430 0l-197 216l-196 -216h-66l230 253l-209 235h66l175 -200l179 200h64l-209 -235l229 -253h-66z" />
<glyph unicode="y" d="M241 -179q-89 0 -146 35q-70 42 -75 141h51q11 -129 172 -129q186 0 186 156v37q-59 -79 -179 -79q-94 0 -149 46q-58 49 -58 138v322h51v-321q0 -138 156 -138q90 0 136 53q43 50 43 138v268h51v-465q0 -202 -239 -202z" />
<glyph unicode="z" horiz-adv-x="473" d="M13 0v42l360 399h-331v47h401v-41l-360 -400h377v-47h-447z" />
<glyph unicode="{" horiz-adv-x="350" d="M243 -168q-93 0 -93 107v221q0 55 -15 73q-10 11 -61 33v35q26 11 61 32q15 18 15 73v221q0 107 93 107h26v-48h-25q-29 0 -38 -25q-5 -15 -5 -58v-199q0 -66 -22 -95q-10 -13 -34 -26q25 -13 34 -25q22 -28 22 -96v-198q0 -44 5 -59q9 -25 38 -25h25v-48h-26z" />
<glyph unicode="|" horiz-adv-x="233" d="M91 -32v738h51v-738h-51z" />
<glyph unicode="}" horiz-adv-x="350" d="M208 233q-15 -18 -15 -73v-221q0 -107 -93 -107h-26v48h25q29 0 38 25q5 15 5 59v198q0 68 22 96q9 12 34 25q-24 13 -34 26q-22 29 -22 95v199q0 43 -5 58q-9 25 -38 25h-25v48h26q93 0 93 -107v-221q0 -61 19 -76q13 -11 57 -29v-35q-26 -11 -61 -33z" />
<glyph unicode="~" horiz-adv-x="548" d="M380 351q-32 0 -115 30q-76 28 -97 28q-54 0 -66 -59h-62q9 52 45 78t85 26q30 0 112 -30q76 -29 98 -29q56 0 67 61h62q-9 -53 -45 -79t-84 -26z" />
<glyph unicode="&#xa0;" />
<glyph unicode="&#xa1;" horiz-adv-x="194" d="M98 472q-26 0 -26 24v62q0 25 26 25q25 0 25 -25v-62q0 -24 -25 -24zM71 -95v512h51v-512h-51z" />
<glyph unicode="&#xa2;" d="M418 25q-60 -37 -144 -37q-63 0 -113 20l-23 -44h-54l35 67q-101 69 -101 205q0 120 70.5 193.5t196.5 73.5q35 0 67 -8l29 56h54l-37 -72q77 -37 103 -130l-47 -23q-22 81 -77 110l-194 -385q39 -16 90 -16q68 0 117 31q53 33 68 110l48 -21q-21 -88 -88 -130zM283 456 q-102 0 -158 -60.5t-56 -159.5q0 -106 71 -161l190 376q-22 5 -47 5z" />
<glyph unicode="&#xa3;" horiz-adv-x="584" d="M147 242q2 -94 58 -150.5t150 -56.5t161 68l38 -31q-83 -84 -198 -84q-119 0 -188.5 70t-71.5 184h-77l8 47h69v74h-54l11 48h43v0q0 118 71 189t189 71q115 0 197 -83l-37 -33q-67 69 -161 69q-96 0 -152 -58t-56 -155v0h298l-11 -48h-287v-74h272l-8 -47h-264z" />
<glyph unicode="&#xa4;" horiz-adv-x="584" d="M481 191l-101 84q-43 -27 -98 -27q-56 0 -98 28l-102 -85l-37 30l103 86q-31 35 -31 80q0 47 32 82l-104 87l37 30l103 -86q42 26 96 26q55 0 97 -26l103 86l37 -30l-103 -86q32 -36 32 -82t-31 -82l102 -85zM282 481q-47 0 -81 -25.5t-34 -67.5t34 -68.5t81 -26.5 q48 0 82 26t34 68q0 45 -37 71q-32 23 -79 23z" />
<glyph unicode="&#xa5;" horiz-adv-x="645" d="M349 328v-36h212v-47h-212v-74h212v-48h-212v-123h-51v123h-212v48h212v74h-212v47h212v36l-321 350h66l280 -304l281 304h65z" />
<glyph unicode="&#xa6;" horiz-adv-x="233" d="M91 364v332h51v-332h-51zM91 -23v332h51v-332h-51z" />
<glyph unicode="&#xa7;" horiz-adv-x="584" d="M404 145q79 -35 79 -109q0 -69 -60 -109q-51 -35 -124 -35q-213 0 -213 178h51q0 -68 37.5 -99.5t119.5 -31.5q58 0 94 22q44 26 44 75q0 61 -79 77l-155 30q-49 15 -81 50q-37 40 -33 88q7 86 94 116q-79 35 -79 110q0 69 60 109q51 35 124 35q214 0 214 -179h-51 q0 69 -37.5 100.5t-119.5 31.5q-56 0 -94 -23q-45 -26 -45 -74q0 -46 53 -67q21 -8 127 -29q54 -5 89 -23q81 -35 81 -115q0 -95 -96 -128zM281 366q-120 0 -143 -69q-1 -6 -1 -13q0 -53 55 -82q47 -25 109 -25q60 0 99 20q48 24 49 74q-23 95 -168 95z" />
<glyph unicode="&#xa8;" horiz-adv-x="214" d="M165 547q-25 0 -25 20v38q0 19 25 19q26 0 26 -19v-38q0 -20 -26 -20zM50 547q-26 0 -26 20v38q0 19 26 19q25 0 25 -19v-38q0 -20 -25 -20z" />
<glyph unicode="&#xa9;" horiz-adv-x="560" d="M285 236q-105 0 -177 55q-80 61 -80 162q0 99 80 161q74 58 175 58q102 0 176 -57q81 -62 81 -161t-80 -161q-73 -57 -175 -57zM285 624q-81 0 -139 -44q-65 -48 -65 -126t64 -126q58 -45 138 -45q81 0 139 44q65 48 65 126t-64 126q-58 45 -138 45zM293 308 q-71 0 -116 38.5t-45 104.5q0 65 44 102t113 37q121 0 141 -118h-54q-15 70 -88 70q-47 0 -75 -24.5t-28 -66.5q0 -44 29.5 -69.5t78.5 -25.5q61 0 84 73h56q-38 -121 -140 -121z" />
<glyph unicode="&#xaa;" horiz-adv-x="378" d="M297 348v32q-42 -38 -110 -38q-75 0 -117 45t-42 113q0 70 42.5 114t118.5 44q68 0 108 -36v35h53v-309h-53zM187 611q-51 0 -78.5 -31t-27.5 -80t27 -80t79 -31q51 0 81 33q29 30 29 78q0 51 -28 81t-82 30z" />
<glyph unicode="&#xab;" horiz-adv-x="391" d="M172 258v31l179 116v-53l-118 -78l118 -79v-50zM56 258v31l179 116v-53l-118 -78l118 -79v-50z" />
<glyph unicode="&#xac;" horiz-adv-x="602" d="M504 134v126h-470v42h521v-168h-51z" />
<glyph unicode="&#xad;" horiz-adv-x="350" d="M36 254v20h287v-20h-287z" />
<glyph unicode="&#xae;" horiz-adv-x="543" d="M274 236q-103 0 -176 56q-80 61 -80 161q0 99 80 161q74 58 175 58q102 0 176 -57q80 -61 80 -161q0 -101 -79 -162q-72 -56 -176 -56zM397 591q-52 33 -123 33q-81 0 -139 -44q-64 -47 -64 -126q0 -77 60 -125q57 -46 142 -46q81 0 139 44q64 47 64 126q0 53 -28 92 q-19 27 -51 46zM374 447q22 -19 22 -54v-77h-54v76q0 31 -45 31h-73v-107h-53v270h129q99 0 99 -79q0 -38 -25 -60zM300 537h-76v-65h71q51 0 51 34q0 31 -46 31z" />
<glyph unicode="&#xaf;" horiz-adv-x="313" d="M20 597v19h274v-19h-274z" />
<glyph unicode="&#xb0;" horiz-adv-x="420" d="M210 385q-66 0 -114 36q-51 39 -51 99q0 59 51 98q47 37 113 37q67 0 114 -36q51 -38 51 -98q0 -62 -53 -101q-47 -35 -111 -35zM210 611q-47 0 -81 -25t-34 -65q0 -41 34 -66.5t81 -25.5q48 0 81.5 25t33.5 66q0 44 -37 69q-32 22 -78 22z" />
<glyph unicode="&#xb1;" horiz-adv-x="630" d="M340 226v-164h-51v164h-191v46h191v161h51v-161h192v-46h-192zM99 -3v47h434v-47h-434z" />
<glyph unicode="&#xb2;" horiz-adv-x="392" d="M21 256q0 70 38 120q29 37 91 73q54 30 108 61q40 24 40 45q0 59 -100 59q-61 0 -88.5 -27t-27.5 -87h-54q0 162 166 162q157 0 157 -109q0 -51 -76 -92l-87 -46q-96 -52 -110 -112h293v-47h-350z" />
<glyph unicode="&#xb3;" horiz-adv-x="426" d="M218 252q-79 0 -129 31q-59 37 -59 110v24h55v-33q0 -42 42 -65q35 -19 87 -19q51 0 85 16q43 20 43 59q0 72 -115 72h-51v48h52q106 0 106 61q0 58 -111 58q-66 0 -95.5 -25.5t-29.5 -82.5h-54q0 156 178 156q63 0 107 -21q59 -28 59 -85q0 -58 -51 -85q59 -29 59 -96 q0 -63 -60 -96q-49 -27 -118 -27z" />
<glyph unicode="&#xb4;" horiz-adv-x="212" d="M69 536q-9 -7 -20 -7q-27 0 -27 20q0 8 8 15l113 101q9 8 21 8q26 0 26 -21q0 -9 -8 -16z" />
<glyph unicode="&#xb5;" d="M321 -15q-23 -3 -48 -3q-121 0 -179 78v-231h-51v659h51v-268q0 -88 43 -137q46 -54 136 -54q156 0 156 139v320h51v-321q0 -114 -89 -159q-13 -7 -13 -19q0 -33 81 -33v-51q-56 0 -91 17q-47 23 -47 63z" />
<glyph unicode="&#xb6;" horiz-adv-x="496" d="M398 -133v764h-56v-764h-51v371q-100 -1 -170 59q-74 63 -74 161q0 101 81 163q74 58 177 58q4 0 8 -1h136v-811h-51z" />
<glyph unicode="&#xb7;" horiz-adv-x="209" d="M119 280q-26 0 -26 21v46q0 20 26 20q25 0 25 -20v-46q0 -21 -25 -21z" />
<glyph unicode="&#xb8;" horiz-adv-x="259" d="M123 -174q-39 0 -112 19l24 40q54 -16 85 -16q66 0 66 30q0 18 -46 21q-27 2 -53 -9v26l9 72h50l-2 -46q97 0 97 -67q0 -70 -118 -70z" />
<glyph unicode="&#xb9;" horiz-adv-x="287" d="M168 260v323l-91 -54h-94l200 124h41v-393h-56z" />
<glyph unicode="&#xba;" horiz-adv-x="413" d="M205 350q-77 0 -125.5 41.5t-48.5 111.5q0 71 51 113q48 40 126 40q77 0 126 -41.5t49 -111.5q0 -73 -54 -115q-49 -38 -124 -38zM206 614q-56 0 -91 -30.5t-35 -80.5q0 -51 34.5 -81t91.5 -30q58 0 93 29.5t35 81.5q0 54 -36.5 82.5t-91.5 28.5z" />
<glyph unicode="&#xbb;" horiz-adv-x="381" d="M172 145v50l118 79l-118 78v53l179 -116v-31zM56 145v50l118 79l-118 78v53l179 -116v-31z" />
<glyph unicode="&#xbc;" horiz-adv-x="816" d="M679 131v-131h-50v131h-274l169 279h56l-142 -234h191v235l50 -2v-233h92v-45h-92zM231 0h-54l348 694h54zM191 252v336l-94 -58h-86l191 123h40v-401h-51z" />
<glyph unicode="&#xbd;" horiz-adv-x="803" d="M423 0q2 129 137 202l88 48q52 34 52 56q0 64 -102 64q-61 0 -89.5 -28t-28.5 -91h-49q1 163 163 163q154 0 154 -110q0 -51 -69 -88q-41 -23 -89 -51q-102 -59 -114 -121h292v-44h-345zM220 0h-54l349 694h54zM180 252v336l-93 -58h-87l191 123h40v-401h-51z" />
<glyph unicode="&#xbe;" horiz-adv-x="906" d="M770 131v-131h-50v131h-274l170 279h56l-143 -234h191v235l50 -2v-233h92v-45h-92zM322 0h-54l349 694h54zM229 244q-185 0 -185 142v23h49v-31q0 -46 43 -69q36 -20 90 -20q51 0 87 17q44 21 44 62q0 78 -119 78h-48v44h49q109 0 109 64q0 63 -114 63q-66 0 -96.5 -26.5 t-30.5 -84.5h-49q2 155 175 155q64 0 106 -20q58 -28 58 -87t-57 -87q66 -31 66 -99q0 -63 -60 -96q-49 -28 -117 -28z" />
<glyph unicode="&#xbf;" d="M256 488q-25 0 -25 24v62q0 25 25 25q26 0 26 -25v-62q0 -24 -26 -24zM405 -50q-62 -45 -159 -45q-88 0 -149 38q-72 45 -72 129q0 63 53 121q49 47 99 93q53 55 53 111v37h52v-33q0 -99 -104 -182q-59 -47 -79 -74q-23 -32 -23 -73q0 -62 54 -93q46 -27 117 -27 q89 0 135.5 41.5t55.5 134.5l48 -29q-14 -100 -81 -149z" />
<glyph unicode="&#xc0;" horiz-adv-x="676" d="M412 695q-17 -11 -34 4l-114 119q-8 8 -8 17q0 11 11 18q7 6 15 6q11 0 20 -10l114 -118q8 -8 8 -18q0 -11 -12 -18zM618 0l-97 215h-362l-99 -215h-58l318 684h47l307 -684h-56zM344 610l-163 -347h319z" />
<glyph unicode="&#xc1;" horiz-adv-x="676" d="M303 701q-9 -9 -20 -9q-26 0 -26 24q0 9 7 17l114 118q9 10 20 10q25 0 25 -24q0 -9 -7 -17zM618 0l-97 215h-362l-99 -215h-58l318 684h47l307 -684h-56zM344 610l-163 -347h319z" />
<glyph unicode="&#xc2;" horiz-adv-x="676" d="M417 687l-78 103l-78 -103h-58l118 160h37l121 -160h-62zM618 0l-97 215h-362l-99 -215h-58l318 684h47l307 -684h-56zM344 609l-163 -346h319z" />
<glyph unicode="&#xc3;" horiz-adv-x="676" d="M415 701q-21 0 -76 28q-50 25 -60 25q-13 0 -23.5 -12.5t-12.5 -53.5l-47 30q0 39 26.5 61t58.5 22q19 0 74 -28q50 -25 60 -25q13 0 24 12.5t13 51.5l47 -26q-3 -40 -27.5 -62.5t-56.5 -22.5zM618 0l-97 215h-362l-99 -215h-58l318 683h47l307 -683h-56zM344 608 l-163 -346h319z" />
<glyph unicode="&#xc4;" horiz-adv-x="676" d="M398 696q-25 0 -25 25v53q0 25 25 25q26 0 26 -25v-53q0 -25 -26 -25zM283 696q-26 0 -26 25v53q0 25 26 25q25 0 25 -25v-53q0 -25 -25 -25zM618 0l-97 215h-362l-99 -215h-58l318 682h47l307 -682h-56zM344 608l-163 -346h319z" />
<glyph unicode="&#xc5;" horiz-adv-x="676" d="M339 703q-38 0 -65.5 23.5t-27.5 61.5q0 37 27.5 61t65.5 24q39 0 66 -23.5t27 -61.5t-27 -61.5t-66 -23.5zM618 0l-97 216h-362l-99 -216h-58l318 685h47l307 -685h-56zM339 823q-40 0 -40 -35q0 -36 40 -36q41 0 41 36q0 35 -41 35zM344 610l-163 -347h319z" />
<glyph unicode="&#xc6;" horiz-adv-x="1077" d="M575 0v330h-253l-303 -330h-65l623 678h464v-47h-414v-254h46v-1h315v-46h-361l1 -283h418v-47h-471zM366 377h209l2 227z" />
<glyph unicode="&#xc7;" horiz-adv-x="719" d="M646 527q-76 110 -244 110q-144 0 -229.5 -81.5t-85.5 -220.5q0 -137 81.5 -218.5t222.5 -81.5q161 0 246 112l43 -27q-100 -133 -288 -133q-164 0 -260 93t-96 251q0 162 99 258t267 96q195 0 287 -131zM374 -174q-39 0 -113 21l25 44q54 -17 85 -17q65 0 65 34 q0 20 -45 24q-27 3 -53 -10v29l8 81h51l-2 -52q97 0 97 -76q0 -78 -118 -78z" />
<glyph unicode="&#xc8;" horiz-adv-x="564" d="M355 686q-19 -13 -36 4l-113 118q-8 8 -8 18t11 17q18 15 35 -3l114 -118q7 -8 7 -17q0 -11 -10 -19zM42 0v684h516v-48h-466v-256h413v-47h-413v-285h471v-48h-521z" />
<glyph unicode="&#xc9;" horiz-adv-x="564" d="M245 690q-9 -9 -20 -9q-26 0 -26 24q0 9 7 17l114 118q8 9 19 9q27 0 27 -24q0 -9 -8 -17zM42 0v684h516v-48h-466v-256h413v-47h-413v-285h471v-48h-521z" />
<glyph unicode="&#xca;" horiz-adv-x="564" d="M358 697l-78 103l-78 -103h-58l118 160h37l122 -160h-63zM42 0v684h516v-47h-466v-257h413v-47h-413v-285h471v-48h-521z" />
<glyph unicode="&#xcb;" horiz-adv-x="564" d="M340 704q-26 0 -26 25v53q0 25 26 25q25 0 25 -25v-53q0 -25 -25 -25zM224 704q-25 0 -25 25v53q0 25 25 25q26 0 26 -25v-53q0 -25 -26 -25zM42 0v683h516v-48h-466v-256h413v-46h-413v-286h471v-47h-521z" />
<glyph unicode="&#xcc;" horiz-adv-x="134" d="M140 701q-20 -13 -36 4l-113 118q-8 8 -8 17q0 11 11 19q19 14 36 -4l113 -118q7 -8 7 -17q0 -12 -10 -19zM42 0v684h51v-684h-51z" />
<glyph unicode="&#xcd;" horiz-adv-x="134" d="M30 701q-8 -9 -20 -9q-27 0 -27 24q0 9 8 17l113 118q9 10 21 10q26 0 26 -24q0 -9 -8 -17zM42 0v684h51v-684h-51z" />
<glyph unicode="&#xce;" horiz-adv-x="134" d="M144 693l-78 103l-80 -103h-57l118 160h37l122 -160h-62zM42 0v684h51v-684h-51z" />
<glyph unicode="&#xcf;" horiz-adv-x="134" d="M125 711q-25 0 -25 26v53q0 24 25 24q24 0 26 -24v-53q0 -26 -26 -26zM10 711q-27 0 -27 26v53q0 24 27 24q23 0 25 -24v-53q0 -26 -25 -26zM42 0v683h51v-683h-51z" />
<glyph unicode="&#xd0;" horiz-adv-x="680" d="M277 0h-235v316h-37v48h37v314h273q167 0 254 -91q83 -88 83 -249q0 -166 -106 -255q-99 -83 -269 -83zM532 553q-73 78 -218 78h-221v-267h198v-48h-198v-269h187q152 0 236.5 74t84.5 217q0 142 -69 215z" />
<glyph unicode="&#xd1;" horiz-adv-x="680" d="M408 695q-21 0 -76 28q-50 25 -60 25q-13 0 -23.5 -12.5t-12.5 -53.5l-47 30q0 38 27 60.5t57 22.5q20 0 75 -28q50 -25 60 -25q13 0 24 12.5t13 50.5l47 -24q-3 -40 -27.5 -63t-56.5 -23zM585 0l-492 606v-606h-51v682h53q86 -110 246 -303q173 -207 246 -300v603h51 v-682h-53z" />
<glyph unicode="&#xd2;" horiz-adv-x="757" d="M451 699q-18 -12 -34 4l-114 118q-8 10 -8 19q0 21 27 21q13 0 20 -8l113 -118q7 -8 7 -17q0 -12 -11 -19zM379 -7q-168 0 -263.5 93t-95.5 256q0 161 96 250t263 89t263.5 -89t96.5 -250q0 -162 -96.5 -255.5t-263.5 -93.5zM379 634q-145 0 -226.5 -76.5t-81.5 -215.5 t82 -220t226 -81q146 0 227.5 80t81.5 221q0 140 -81.5 216t-227.5 76z" />
<glyph unicode="&#xd3;" horiz-adv-x="757" d="M340 706q-10 -8 -19 -8q-26 0 -26 23q0 10 8 17l113 119q15 17 36 4q11 -7 11 -18q0 -10 -8 -18zM379 -7q-168 0 -263.5 93t-95.5 256q0 161 96 250t263 89t263.5 -89t96.5 -250q0 -162 -96.5 -255.5t-263.5 -93.5zM379 634q-145 0 -226.5 -76.5t-81.5 -215.5t82 -220 t226 -81q146 0 227.5 80t81.5 221q0 140 -81.5 216t-227.5 76z" />
<glyph unicode="&#xd4;" horiz-adv-x="757" d="M456 705l-79 102l-79 -102h-57l117 159h36l123 -159h-61zM379 -7q-168 0 -263.5 93t-95.5 256q0 161 96 250t263 89t263.5 -89t96.5 -250q0 -162 -96.5 -255.5t-263.5 -93.5zM379 634q-145 0 -226.5 -76.5t-81.5 -215.5t82 -220t226 -81q146 0 227.5 80t81.5 221 q0 140 -81.5 216t-227.5 76z" />
<glyph unicode="&#xd5;" horiz-adv-x="757" d="M448 716q-20 0 -75 28q-50 25 -60 25q-32 0 -38 -66l-45 30q0 38 27 60.5t57 22.5q20 0 75 -28q50 -25 59 -25q14 0 25 12.5t13 51.5l47 -26q-5 -40 -29 -62.5t-56 -22.5zM379 -7q-168 0 -263.5 93t-95.5 255q0 161 96 250t263 89t263.5 -89t96.5 -250t-96.5 -254.5 t-263.5 -93.5zM379 633q-145 0 -226.5 -76.5t-81.5 -215.5t82 -219.5t226 -80.5q146 0 227.5 80t81.5 220t-81.5 216t-227.5 76z" />
<glyph unicode="&#xd6;" horiz-adv-x="757" d="M437 711q-26 0 -26 26v53q0 24 26 24q23 0 25 -24v-53q0 -26 -25 -26zM321 711q-25 0 -25 26v53q0 24 25 24q24 0 26 -24v-53q0 -26 -26 -26zM379 -7q-168 0 -263.5 93t-95.5 255q0 161 96 250t263 89t263.5 -89t96.5 -250t-96.5 -254.5t-263.5 -93.5zM379 632 q-145 0 -226.5 -76t-81.5 -215t82 -219.5t226 -80.5q146 0 227.5 80t81.5 220t-81.5 215.5t-227.5 75.5z" />
<glyph unicode="&#xd7;" horiz-adv-x="490" d="M381 109l-136 111l-136 -109l-36 30l134 111l-134 109l38 31l134 -110l135 110l38 -32l-135 -108l136 -113z" />
<glyph unicode="&#xd8;" horiz-adv-x="757" d="M379 -8q-76 0 -137 20l-21 -41h-54l30 59q-49 24 -86 63q-91 95 -91 246q0 160 96 248.5t263 88.5q75 0 135 -17l23 45h54l-31 -62q179 -85 179 -303q0 -161 -96.5 -254t-263.5 -93zM537 598l-272 -542q51 -17 114 -17q146 0 227.5 80t81.5 220q0 191 -151 259zM379 629 q-145 0 -226.5 -76t-81.5 -214q0 -130 78 -212q32 -34 70 -52l273 540q-51 14 -113 14z" />
<glyph unicode="&#xd9;" horiz-adv-x="664" d="M405 691q-16 -11 -35 3l-114 120q-8 8 -8 17q0 10 11 18q19 14 36 -4l113 -117q8 -9 8 -18q0 -11 -11 -19zM546 54q-71 -61 -214 -61q-145 0 -215 61q-75 65 -75 204v426h51v-425q0 -218 239 -218q238 0 238 214v429h51v-428q0 -138 -75 -202z" />
<glyph unicode="&#xda;" horiz-adv-x="664" d="M294 697q-9 -8 -20 -8q-26 0 -26 23q0 9 8 18l113 117q9 10 21 10q26 0 26 -24q0 -9 -8 -17zM546 54q-71 -61 -214 -61q-145 0 -215 61q-75 65 -75 204v426h51v-425q0 -218 239 -218q238 0 238 214v429h51v-428q0 -138 -75 -202z" />
<glyph unicode="&#xdb;" horiz-adv-x="664" d="M410 695l-80 103l-78 -103h-58l118 160h37l122 -160h-61zM546 54q-71 -61 -214 -61q-145 0 -215 61q-75 65 -75 204v426h51v-425q0 -218 239 -218q238 0 238 214v429h51v-428q0 -138 -75 -202z" />
<glyph unicode="&#xdc;" horiz-adv-x="664" d="M390 711q-26 0 -26 26v53q0 24 26 24q25 0 25 -24v-53q0 -26 -25 -26zM274 711q-25 0 -25 26v53q0 24 25 24q26 0 26 -24v-53q0 -26 -26 -26zM546 54q-71 -61 -214 -61q-145 0 -215 61q-75 64 -75 203v426h51v-425q0 -217 239 -217q238 0 238 213v429h51v-428 q0 -137 -75 -201z" />
<glyph unicode="&#xdd;" horiz-adv-x="657" d="M292 701q-9 -9 -20 -9q-26 0 -26 24q0 9 7 17l114 118q9 10 21 10q26 0 26 -24q0 -9 -8 -17zM355 331v-331h-51v331l-321 353h66l280 -306l281 306h65z" />
<glyph unicode="&#xde;" horiz-adv-x="425" d="M235 168h-141v-168h-51v678h51v-147h142q149 0 149 -184q0 -179 -150 -179zM235 483h-141v-270l142 1q97 0 97 133q0 136 -98 136z" />
<glyph unicode="&#xdf;" horiz-adv-x="505" d="M409 24q-72 -54 -212 -54v47q243 0 243 187q0 90 -67 139q-63 47 -176 47v48q106 0 145 15q58 22 58 84q0 64 -45 87q-36 19 -120 19q-141 0 -141 -134v-510h-51v391h-35v49h35q0 44 3 96q8 155 191 155q218 0 214 -148q-3 -101 -97 -130q41 -18 76 -57q61 -67 61 -151 q0 -119 -82 -180z" />
<glyph unicode="&#xe0;" horiz-adv-x="552" d="M325 510q-17 -11 -34 4l-114 117q-8 9 -8 18q0 11 11 18q7 6 15 6q12 0 21 -10l113 -117q7 -8 7 -17q0 -11 -11 -19zM463 0v88q-67 -99 -203 -99q-116 0 -183 75q-63 71 -63 183q0 114 64 185q67 75 186 75q134 0 199 -96v94h51v-505h-51zM412 401q-54 59 -153 59 q-92 0 -145 -63q-50 -59 -50 -150q0 -93 49 -150q52 -61 146 -61q93 0 149 62q55 59 55 149q0 97 -51 154z" />
<glyph unicode="&#xe1;" horiz-adv-x="552" d="M226 514q-10 -8 -19 -8q-26 0 -26 23q0 9 8 17l113 117q9 10 21 10q25 0 25 -23q0 -10 -7 -18zM475 0v88q-67 -99 -203 -99q-116 0 -183 75q-63 71 -63 183q0 114 64 185q67 75 186 75q134 0 199 -96v94h51v-505h-51zM424 401q-54 59 -153 59q-92 0 -145 -63 q-50 -59 -50 -150q0 -93 49 -150q52 -61 146 -61q93 0 149 62q55 59 55 149q0 97 -51 154z" />
<glyph unicode="&#xe2;" horiz-adv-x="552" d="M342 517l-79 100l-79 -100h-57l117 157h36l123 -157h-61zM475 0v88q-67 -99 -203 -99q-116 0 -183 75q-63 71 -63 183q0 114 64 185q67 75 186 75q134 0 199 -96v94h51v-505h-51zM424 401q-54 59 -153 59q-92 0 -145 -63q-50 -59 -50 -150q0 -92 49 -150q52 -61 146 -61 q93 0 149 62q55 59 55 149q0 97 -51 154z" />
<glyph unicode="&#xe3;" horiz-adv-x="552" d="M333 527q-21 0 -76 27q-50 25 -59 25q-32 0 -38 -65l-45 30q0 37 27 59.5t57 22.5q20 0 75 -28q50 -24 59 -24q14 0 25 12t13 51l47 -26q-5 -40 -29 -62t-56 -22zM475 0v88q-67 -99 -203 -99q-116 0 -183 75q-63 70 -63 182q0 114 64 185q67 75 186 75q134 0 199 -96v94 h51v-504h-51zM424 400q-54 59 -153 59q-92 0 -145 -64q-50 -58 -50 -149q0 -92 49 -149q52 -61 146 -61q93 0 148.5 60t55.5 150q0 97 -51 154z" />
<glyph unicode="&#xe4;" horiz-adv-x="552" d="M335 522q-26 0 -26 25v53q0 24 26 24q25 0 25 -24v-53q0 -25 -25 -25zM219 522q-25 0 -25 25v53q0 24 25 24q26 0 26 -24v-53q0 -25 -26 -25zM475 -1v89q-67 -99 -203 -99q-116 0 -183 75q-63 70 -63 182q0 114 64 184q67 76 186 76q134 0 199 -96v94h51v-505h-51z M424 400q-54 59 -153 59q-92 0 -145 -64q-50 -58 -50 -149q0 -92 49 -149q52 -61 146 -61q93 0 148.5 60t55.5 150q0 97 -51 154z" />
<glyph unicode="&#xe5;" horiz-adv-x="552" d="M270 531q-39 0 -66.5 23.5t-27.5 60.5q0 38 27.5 61.5t66.5 23.5q38 0 65 -24t27 -61t-27 -60.5t-65 -23.5zM475 0v88q-67 -99 -203 -99q-116 0 -183 75q-63 71 -63 183q0 115 64 186q67 75 186 75q134 0 199 -96v94h51v-506h-51zM270 651q-41 0 -41 -36q0 -35 41 -35 q40 0 40 35q0 36 -40 36zM424 402q-54 59 -153 59q-92 0 -145 -64q-50 -59 -50 -150q0 -92 49 -149q52 -62 146 -62q93 0 149 62q55 59 55 149q0 98 -51 155z" />
<glyph unicode="&#xe6;" horiz-adv-x="984" d="M514 226v-9q0 -181 200 -181q145 0 191 119h52q-29 -92 -99 -131q-63 -35 -146 -35q-134 0 -198 82v-72h-51v88q-67 -98 -203 -98q-116 0 -183 74q-63 70 -63 180q0 113 64 183q67 74 186 74q134 0 199 -95v93h51v-94q75 96 202 96q115 0 184 -64.5t69 -173.5v-35z M716 453q-83 0 -141 -49q-61 -51 -61 -131v0h399q-5 84 -58.5 132t-138.5 48zM412 395q-54 58 -153 58q-92 0 -146 -62q-49 -58 -49 -148q0 -91 49 -147q52 -60 146 -60q93 0 148.5 59t55.5 148q0 96 -51 152z" />
<glyph unicode="&#xe7;" d="M418 20q-60 -38 -144 -38q-118 0 -187 68.5t-69 181.5q0 120 70.5 194t196.5 74q76 0 132 -35q62 -38 83 -119l-46 -24q-34 131 -171 131q-102 0 -159 -63q-55 -59 -55 -158q0 -93 54 -148t150 -55q68 0 117 31q53 34 68 111l48 -21q-21 -88 -88 -130zM301 -22 q96 0 96 -74q0 -78 -118 -78q-38 0 -112 21l23 44q56 -18 86 -18q66 0 66 34q0 20 -46 24q-27 3 -53 -10v29l10 80h50z" />
<glyph unicode="&#xe8;" d="M335 510q-17 -10 -34 4l-115 118q-8 9 -8 18q0 21 27 21q13 0 20 -7l114 -118q8 -8 8 -17q0 -12 -12 -19zM61 229q10 -193 201 -193q145 0 191 121h52q-29 -95 -99 -134q-61 -34 -146 -34q-123 0 -188 72q-61 67 -61 186q0 116 69.5 188t184.5 72t184 -65t69 -176v-36z M265 460q-86 0 -140 -49t-63 -134h400q-5 85 -58 134t-139 49z" />
<glyph unicode="&#xe9;" d="M340 634l-116 -118q-10 -8 -19 -8q-26 0 -26 23q0 9 8 17l113 117q15 17 37 4q9 -8 9 -18q0 -7 -6 -17zM61 229q10 -193 201 -193q145 0 191 121h52q-29 -95 -99 -134q-61 -34 -146 -34q-123 0 -188 72q-61 67 -61 186q0 116 69.5 188t184.5 72t184 -65t69 -176v-36z M265 460q-86 0 -140 -49t-63 -134h400q-5 85 -58 134t-139 49z" />
<glyph unicode="&#xea;" d="M340 517l-79 100l-79 -100h-58l119 157h37l121 -157h-61zM61 229q10 -193 201 -193q145 0 191 121h52q-29 -95 -99 -134q-61 -34 -146 -34q-123 0 -188 72q-61 67 -61 186q0 116 69.5 188t184.5 72t184 -65t69 -176v-36zM265 460q-86 0 -140 -49t-63 -134h400 q-5 85 -58 134t-139 49z" />
<glyph unicode="&#xeb;" d="M321 522q-25 0 -25 25v53q0 24 25 24q26 0 26 -24v-53q0 -25 -26 -25zM206 522q-26 0 -26 25v53q0 24 26 24q25 0 25 -24v-53q0 -25 -25 -25zM61 229q10 -193 201 -193q145 0 191 120h52q-29 -94 -99 -133q-61 -34 -146 -34q-123 0 -188 71q-61 67 -61 186 q0 116 69.5 188t184.5 72t184 -65.5t69 -175.5v-35zM265 459q-86 0 -140 -49t-63 -134h400q-5 85 -58 134t-139 49z" />
<glyph unicode="&#xec;" horiz-adv-x="136" d="M140 510q-17 -10 -34 4l-114 117q-8 8 -8 18q0 11 11 18q7 6 15 6q11 0 20 -10l114 -117q8 -8 8 -17q0 -12 -12 -19zM43 0v496h51v-496h-51z" />
<glyph unicode="&#xed;" horiz-adv-x="136" d="M31 511q-9 -9 -20 -9q-26 0 -26 23q0 9 7 17l114 118q9 9 20 9q25 0 25 -24q0 -9 -7 -17zM43 0v496h51v-496h-51z" />
<glyph unicode="&#xee;" horiz-adv-x="136" d="M141 517l-72 99l-74 -99h-58l113 157h37l115 -157h-61zM43 0v496h51v-496h-51z" />
<glyph unicode="&#xef;" horiz-adv-x="136" d="M129 522q-25 0 -25 26v52q0 24 25 24q26 0 26 -24v-52q0 -26 -26 -26zM14 522q-26 0 -26 26v52q0 24 26 24q25 0 25 -24v-52q0 -26 -25 -26zM43 0v494h51v-494h-51z" />
<glyph unicode="&#xf0;" horiz-adv-x="564" d="M463 0v88q-67 -99 -203 -99q-116 0 -183 75q-63 71 -63 183q0 114 64 185q67 75 186 75q134 0 199 -95v149h-332v48h332v69h51v-678h-51zM412 401q-54 59 -153 59q-92 0 -145 -63q-50 -59 -50 -150q0 -92 49 -149q52 -62 146 -62q93 0 149 62q55 59 55 149q0 98 -51 154z " />
<glyph unicode="&#xf1;" d="M334 527q-21 0 -76 27q-50 25 -60 25q-13 0 -23.5 -12t-12.5 -53l-47 30q0 36 27.5 59t56.5 23q20 0 75 -28q50 -24 60 -24q13 0 24 12t13 51l47 -26q-3 -39 -27.5 -61.5t-56.5 -22.5zM429 0v323q0 66 -41.5 101t-112.5 35q-84 0 -132.5 -50.5t-48.5 -131.5v-277h-51v494 h51v-67q58 79 180 79q89 0 145 -42q61 -47 61 -132v-332h-51z" />
<glyph unicode="&#xf2;" horiz-adv-x="545" d="M345 510q-17 -11 -34 4l-114 117q-8 9 -8 18q0 11 11 18q7 6 15 6q12 0 21 -10l113 -117q7 -8 7 -17q0 -11 -11 -19zM272 -11q-119 0 -188.5 72t-69.5 187q0 117 71 188t189 71t188 -71t70 -188q0 -118 -71 -188.5t-189 -70.5zM273 460q-96 0 -152 -58t-56 -154 t56.5 -154t151.5 -58t151.5 58t56.5 154q0 95 -55 153.5t-153 58.5z" />
<glyph unicode="&#xf3;" horiz-adv-x="545" d="M235 510q-8 -8 -19 -8q-27 0 -27 24q0 8 7 16l114 118q9 9 21 9q26 0 26 -24q0 -9 -8 -17zM272 -11q-119 0 -188.5 72t-69.5 187q0 117 71 188t189 71t188 -71t70 -188q0 -118 -71 -188.5t-189 -70.5zM273 460q-96 0 -152 -58t-56 -154t56.5 -154t151.5 -58t151.5 58 t56.5 154q0 95 -55 153.5t-153 58.5z" />
<glyph unicode="&#xf4;" horiz-adv-x="545" d="M351 517l-79 100l-80 -100h-58l119 157h36l123 -157h-61zM272 -11q-119 0 -188.5 72t-69.5 187q0 117 71 188t189 71t188 -71t70 -188q0 -118 -71 -188.5t-189 -70.5zM273 460q-96 0 -152 -58t-56 -154t56.5 -154t151.5 -58t151.5 58t56.5 154t-55 154t-153 58z" />
<glyph unicode="&#xf5;" horiz-adv-x="545" d="M341 527q-21 0 -77 27q-50 25 -58 25q-34 0 -37 -65l-47 30q0 38 26.5 60t58.5 22q19 0 74 -28q50 -24 60 -24q31 0 40 63l44 -26q-5 -39 -28.5 -61.5t-55.5 -22.5zM272 -11q-119 0 -190 73q-68 70 -68 185q0 117 71 188t189 71q117 0 187.5 -71t70.5 -188t-71 -187.5 t-189 -70.5zM273 459q-96 0 -152 -57.5t-56 -154.5q0 -96 56.5 -153.5t151.5 -57.5t151.5 57.5t56.5 153.5t-55 154t-153 58z" />
<glyph unicode="&#xf6;" horiz-adv-x="545" d="M331 522q-26 0 -26 25v53q0 24 26 24q25 0 25 -24v-53q0 -25 -25 -25zM215 522q-25 0 -25 25v53q0 24 25 24q26 0 26 -24v-53q0 -25 -26 -25zM272 -11q-119 0 -190 73q-68 70 -68 185q0 117 71.5 188t188.5 71t187.5 -71t70.5 -188t-71 -187.5t-189 -70.5zM273 459 q-96 0 -152 -58t-56 -154t56.5 -153.5t151.5 -57.5t151.5 57.5t56.5 153.5q0 95 -55 153.5t-153 58.5z" />
<glyph unicode="&#xf7;" horiz-adv-x="592" d="M296 291q-25 0 -25 24v60q0 23 25 23q26 0 26 -23v-60q0 -24 -26 -24zM35 217v46h507v-46h-507zM296 74q-25 0 -25 24v59q0 25 25 25q26 0 26 -25v-59q0 -24 -26 -24z" />
<glyph unicode="&#xf8;" horiz-adv-x="545" d="M272 -13q-55 0 -99 15l-25 -49h-54l35 70q-115 70 -115 221q0 117 71.5 187.5t188.5 70.5q50 0 91 -12l31 59h54l-39 -80q121 -68 121 -225q0 -117 -71.5 -187t-188.5 -70zM429 391q-19 21 -42 35l-192 -380q34 -12 78 -12q95 0 151.5 57.5t56.5 152.5q0 88 -52 147z M273 455q-96 0 -152 -57t-56 -154q0 -117 86 -176l192 378q-32 9 -70 9z" />
<glyph unicode="&#xf9;" d="M335 506q-17 -11 -34 4l-114 118q-8 8 -8 17q0 10 10 17q7 7 15 7q12 0 21 -10l114 -117q8 -8 8 -18q0 -11 -12 -18zM429 0v68q-59 -79 -179 -79q-94 0 -149 46q-58 49 -58 139v322h51v-321q0 -139 156 -139q90 0 136 54q43 49 43 137v269h51v-496h-51z" />
<glyph unicode="&#xfa;" d="M226 514q-9 -8 -20 -8q-26 0 -26 23q0 9 7 17l113 117q9 10 21 10q26 0 26 -24q0 -10 -8 -18zM429 0v68q-59 -79 -179 -79q-94 0 -149 46q-58 49 -58 139v322h51v-321q0 -139 156 -139q90 0 136 54q43 49 43 138v268h51v-496h-51z" />
<glyph unicode="&#xfb;" d="M340 517l-79 100l-79 -100h-58l119 157h37l121 -157h-61zM429 0v68q-59 -79 -179 -79q-94 0 -149 46q-58 49 -58 139v322h51v-321q0 -139 156 -139q90 0 136 54q43 50 43 138v268h51v-496h-51z" />
<glyph unicode="&#xfc;" d="M320 522q-25 0 -25 25v53q0 24 25 24q26 0 26 -24v-53q0 -25 -26 -25zM205 522q-26 0 -26 25v53q0 24 26 24q25 0 25 -24v-53q0 -25 -25 -25zM429 -1v69q-59 -79 -179 -79q-94 0 -149 46q-58 49 -58 138v321h51v-320q0 -138 156 -138q90 0 136 53q43 50 43 138v267h51 v-495h-51z" />
<glyph unicode="&#xfd;" horiz-adv-x="506" d="M331 634l-116 -120q-10 -7 -19 -7q-10 0 -18.5 7t-8.5 17q0 9 9 16l113 118q16 17 37 4q9 -8 9 -18q0 -7 -6 -17zM241 -179q-89 0 -146 35q-70 43 -75 143h51q11 -130 172 -130q186 0 186 157v37q-59 -80 -179 -80q-94 0 -149 47q-58 49 -58 140v324h51v-323 q0 -140 156 -140q90 0 136 54q43 50 43 139v270h51v-469q0 -204 -239 -204z" />
<glyph unicode="&#xfe;" horiz-adv-x="564" d="M293 -16q-133 0 -199 96v-248h-51v846h51v-268q66 96 198 96q119 0 186 -74q63 -70 63 -186q0 -119 -64 -189q-66 -73 -184 -73zM442 396q-52 63 -144 63q-93 0 -148.5 -58.5t-55.5 -152.5q0 -101 49 -157q52 -60 154 -60q94 0 146 63q48 58 48 151t-49 151z" />
<glyph unicode="&#xff;" horiz-adv-x="510" d="M313 521q-25 0 -25 26v53q0 24 25 24q24 0 26 -23v-54q0 -26 -26 -26zM198 521q-26 0 -26 26v53q0 24 26 24q23 0 25 -23v-54q0 -26 -25 -26zM241 -179q-89 0 -146 35q-70 43 -75 143h51q11 -131 172 -131q186 0 186 157v37q-59 -79 -179 -79q-94 0 -149 46 q-58 50 -58 140v324h51v-323q0 -140 156 -140q90 0 136 54q43 50 43 139v270h51v-469q0 -203 -239 -203z" />
<glyph unicode="&#x152;" horiz-adv-x="1010" d="M471 0q-41 -8 -88 -8q-166 0 -263 93t-97 252q0 160 96.5 253t263.5 93q34 0 66 -5h532v-47h-394q141 -84 154 -255h209v-46h-207q-3 -192 -150 -283h394v-47h-516zM505 617v-241h185q-8 86 -56.5 150t-128.5 91zM505 330v-272q60 21 103 63q82 79 84 209h-187zM455 630 q-34 6 -72 6q-145 0 -227 -80t-82 -219t82 -219t227 -80q38 0 72 7v585z" />
<glyph unicode="&#x153;" horiz-adv-x="1052" d="M558 226q10 -190 201 -190q145 0 191 119h52q-29 -92 -99 -131q-63 -35 -146 -35q-174 0 -228 134q-32 -64 -93 -99t-140 -35q-119 0 -188.5 71t-69.5 184q0 117 71.5 186.5t188.5 69.5q81 0 143 -36t92 -104q17 37 46 67q71 73 182 73q115 0 184 -64.5t69 -173.5v-35z M761 453q-83 0 -138.5 -49t-63.5 -131h399q-5 84 -58.5 132t-138.5 48zM297 453q-96 0 -152 -56.5t-56 -152.5q0 -95 56.5 -151.5t151.5 -56.5t151.5 56.5t56.5 151.5q0 94 -55 151.5t-153 57.5z" />
<glyph unicode="&#x178;" horiz-adv-x="663" d="M394 711q-25 0 -25 26v53q0 24 25 24q24 0 26 -24v-53q0 -26 -26 -26zM279 711q-26 0 -26 26v53q0 24 26 24q23 0 25 -24v-53q0 -26 -25 -26zM358 330v-330h-51v330l-322 353h67l280 -306l281 306h65z" />
<glyph unicode="&#x2c6;" horiz-adv-x="259" d="M207 540l-79 85l-79 -85h-58l119 134h35l124 -134h-62z" />
<glyph unicode="&#x2dc;" horiz-adv-x="366" d="M250 551q-19 0 -75 21q-49 18 -60 18q-13 0 -23.5 -9t-12.5 -39l-47 22q0 28 28 45.5t56 17.5q19 0 75 -21q49 -18 59 -18q15 0 25.5 9t12.5 38l47 -20q-5 -30 -29 -47t-56 -17z" />
<glyph unicode="&#x2000;" horiz-adv-x="436" />
<glyph unicode="&#x2001;" horiz-adv-x="873" />
<glyph unicode="&#x2002;" horiz-adv-x="436" />
<glyph unicode="&#x2003;" horiz-adv-x="873" />
<glyph unicode="&#x2004;" horiz-adv-x="291" />
<glyph unicode="&#x2005;" horiz-adv-x="218" />
<glyph unicode="&#x2006;" horiz-adv-x="145" />
<glyph unicode="&#x2007;" horiz-adv-x="145" />
<glyph unicode="&#x2008;" horiz-adv-x="109" />
<glyph unicode="&#x2009;" horiz-adv-x="174" />
<glyph unicode="&#x200a;" horiz-adv-x="48" />
<glyph unicode="&#x2010;" horiz-adv-x="350" d="M36 254v20h287v-20h-287z" />
<glyph unicode="&#x2011;" horiz-adv-x="350" d="M36 254v20h287v-20h-287z" />
<glyph unicode="&#x2012;" horiz-adv-x="350" d="M36 254v20h287v-20h-287z" />
<glyph unicode="&#x2013;" horiz-adv-x="495" d="M-15 254v20h523v-20h-523z" />
<glyph unicode="&#x2014;" horiz-adv-x="894" d="M-15 254v20h922v-20h-922z" />
<glyph unicode="&#x2018;" horiz-adv-x="175" d="M93 517q-5 -16 -24 -16q-26 0 -26 21q0 3 2 7l42 132q5 16 24 16q27 0 27 -21q0 -3 -2 -7z" />
<glyph unicode="&#x2019;" horiz-adv-x="175" d="M94 517q-5 -16 -25 -16q-26 0 -26 20q0 4 2 8l43 132q6 21 30 16q20 -5 20 -21q0 -3 -2 -7z" />
<glyph unicode="&#x201a;" horiz-adv-x="292" d="M132 -74q-5 -17 -25 -17q-26 0 -26 21q0 3 2 8l43 132q6 21 30 16q20 -5 20 -21q0 -3 -2 -7z" />
<glyph unicode="&#x201c;" horiz-adv-x="267" d="M198 517q-5 -16 -24 -16q-26 0 -26 21q0 3 2 7l42 132q5 16 24 16q27 0 27 -21q0 -3 -2 -7zM93 517q-5 -16 -24 -16q-26 0 -26 21q0 3 2 7l42 132q5 16 24 16q27 0 27 -21q0 -3 -2 -7z" />
<glyph unicode="&#x201d;" horiz-adv-x="276" d="M199 517q-5 -16 -25 -16q-26 0 -26 20q0 4 2 8l43 132q6 21 30 16q20 -5 20 -21q0 -3 -2 -7zM94 517q-5 -16 -25 -16q-26 0 -26 20q0 4 2 8l43 132q6 21 30 16q20 -5 20 -21q0 -3 -2 -7z" />
<glyph unicode="&#x201e;" horiz-adv-x="351" d="M237 -74q-5 -17 -25 -17q-26 0 -26 21q0 3 2 8l43 132q6 21 30 16q20 -5 20 -21q0 -3 -2 -7zM132 -74q-5 -17 -25 -17q-26 0 -26 21q0 3 2 8l43 132q6 21 30 16q20 -5 20 -21q0 -3 -2 -7z" />
<glyph unicode="&#x2022;" horiz-adv-x="292" d="M121 250q-38 0 -59.5 7.5t-21.5 14.5v106q0 7 21.5 14.5t59.5 7.5t61 -8q20 -7 20 -14v-106q0 -7 -20 -14q-23 -8 -61 -8z" />
<glyph unicode="&#x2026;" horiz-adv-x="638" d="M524 -2q-26 0 -26 20v47q0 20 26 20q25 0 25 -20v-47q0 -20 -25 -20zM335 -2q-26 0 -26 20v47q0 20 26 20q25 0 25 -20v-47q0 -20 -25 -20zM146 -2q-26 0 -26 20v47q0 20 26 20q25 0 25 -20v-47q0 -20 -25 -20z" />
<glyph unicode="&#x202f;" horiz-adv-x="174" />
<glyph unicode="&#x2039;" horiz-adv-x="294" d="M56 258v31l179 116v-53l-118 -78l118 -79v-50z" />
<glyph unicode="&#x203a;" horiz-adv-x="294" d="M56 145v50l118 79l-118 78v53l179 -116v-31z" />
<glyph unicode="&#x205f;" horiz-adv-x="218" />
<glyph unicode="&#x2122;" horiz-adv-x="789" d="M696 347v241l-133 -241h-41l-139 246q1 -98 1 -246h-55v290h-88v-290h-55v290h-148v47h353l151 -265l149 265h61v-337h-56z" />
<glyph unicode="&#xe000;" horiz-adv-x="490" d="M0 490h490v-490h-490v490z" />
</font>
</defs>
</svg>
